J. Cole - ATM
Sugarland - Babe (Static Video) ft. Taylor Swift

Сильнейший удар 2 / Shootfighter II (Пол Зиллер / Paul Ziller) [1996, США, боевик, BDRip 720p] 2x MVO (R5, "Кипарис") + 2x AVO (Гаврилов, Визгунов) + Original Eng

Ответить на тему
 
Автор
Сообщение

06111986 ®

Пол:

Стаж: 1 месяц 25 дней

Сообщений: 4

Репутация: 0 [+] [-]

Пост 01-Апр-2018 08:03

[Цитировать] 

Сильнейший удар 2 / Shootfighter II
Страна: США
Жанр: боевик
Год выпуска: 1996
Продолжительность: 01:30:36
Перевод: Профессиональный многоголосый R5
Перевод 2: Профессиональный многоголосый Кипарис
Перевод 3:Авторский одноголосый Сергей Визгунов
Перевод 4: Авторский Андрей Гаврилов
Субтитры: нет
Оригинальная аудиодорожка: английский
Режиссер: Пол Зиллер
Роли исполняли: Боло Йен, Уильям Забка, Майкл Бернардо, Чейз Рэндольф, Бретт Бакстер Кларк, Кристи Эйзенберг, Джо Сон, Хорхе Хиль, Марк Маколей, В. Пол Боди
Описание: Сын Лу Роулинса, полицейского из Сан-Франциско, погиб в Майами от рук организатора поединков насмерть — кровавого развлечения местных мафиози. Отец поклялся отомстить бандитам и раздавить всю группировку, прекратив, таким образом, чудовищные схватки современных гладиаторов.
Он собирает свою команду бойцов, во главе которой становится учитель восточных единоборств, уроженец Гонконга Шинго. Каждому из них ненавистно жестокое зрелище, и они не оставляют шансов кровожадным преступникам.
Доп. информация: Релиз [img]http://b.radikal.ru/b00/1803/3c/547b93cb1488.png[/img] Тип релиза: BDRip 720p
Контейнер: MKV
Видео: AVC/H.264, 1280x720, 9000 kbps, 23,976 fps
Аудио #01: Russian, AC3, 2 ch, 256 kbps - Многоголосый ''R5''
Аудио #02: Russian, AC3, 2 ch, 192 kbps - Многоголосый ''Кипарис''
Аудио #03: Russian, AC3, 2 ch, 192 kbps - Авторский ''Сергей Визгунов''
Аудио #04: Russian, AC3, 2 ch, 192 kbps - Авторский ''Андрей Гаврилов''
Аудио #05: English, DTS, 6 ch, 768 kbps
Субтитры: Отсутствуют

Mediainfo

Общее
Уникальный идентификатор : 263230487124936363360309964079322603322 (0xC6085905AEACB9CB1B3BBA46F2A79F3A)
Полное имя : D:\Видео\Сильнейший удар\Shootfighter.2.1996.720p-BLUEBIRD.mkv
Формат : Matroska
Версия формата : Version 2
Размер файла : 6,71 Гбайт
Продолжительность : 1 ч. 30 м.
Общий поток : 10,6 Мбит/сек
Название фильма : Сильнейший удар - 02 (Shootfighter - 02) - BlueBird
Дата кодирования : UTC 2018-03-19 21:57:17
Программа кодирования : mkvmerge v21.0.0 ('Tardigrades Will Inherit The Earth') 64-bit
Библиотека кодирования : libebml v1.3.5 + libmatroska v1.4.8
Attachment : Yes
Видео
Идентификатор : 1
Формат : AVC
Формат/Информация : Advanced Video Codec
Профиль формата : [email protected]
Параметр CABAC формата : Да
Параметр ReFrames формата : 9 кадров
Идентификатор кодека : V_MPEG4/ISO/AVC
Продолжительность : 1 ч. 30 м.
Битрейт : 9000 Кбит/сек
Ширина : 1280 пикселей
Высота : 720 пикселей
Соотношение сторон : 16:9
Частота кадров : 23,976 кадра/сек
Цветовое пространство : YUV
Субдискретизация насыщенности : 4:2:0
Битовая глубина : 8 бит
Тип развёртки : Прогрессивная
Бит/(Пиксели*Кадры) : 0.407
Размер потока : 5,57 Гбайт (83%)
Заголовок : Сильнейший удар - 02 (Shootfighter - 02)
Библиотека кодирования : x264 core 155 r2901 7d0ff22
Настройки программы : cabac=1 / ref=9 / deblock=1:-1:-1 / analyse=0x3:0x133 / me=umh / subme=11 / psy=1 / psy_rd=1.00:0.15 / mixed_ref=1 / me_range=64 / chroma_me=1 / trellis=2 / 8x8dct=1 / cqm=0 / deadzone=21,11 / fast_pskip=0 / chroma_qp_offset=-3 / threads=6 / lookahead_threads=1 / sliced_threads=0 / nr=0 / decimate=0 / interlaced=0 / bluray_compat=0 / constrained_intra=0 / bframes=16 / b_pyramid=2 / b_adapt=2 / b_bias=0 / direct=3 / weightb=1 / open_gop=0 / weightp=2 / keyint=240 / keyint_min=23 / scenecut=40 / intra_refresh=0 / rc_lookahead=60 / rc=2pass / mbtree=0 / bitrate=9000 / ratetol=1.0 / qcomp=0.60 / qpmin=0 / qpmax=69 / qpstep=4 / cplxblur=20.0 / qblur=0.5 / vbv_maxrate=50000 / vbv_bufsize=62500 / nal_hrd=none / filler=0 / ip_ratio=1.40 / pb_ratio=1.30 / aq=1:1.00
Язык : English
Default : Да
Forced : Нет
Аудио #1
Идентификатор : 2
Формат : AC-3
Формат/Информация : Audio Coding 3
Расширение режима : CM (complete main)
Параметр Endianness формата : Big
Идентификатор кодека : A_AC3
Продолжительность : 1 ч. 30 м.
Вид битрейта : Постоянный
Битрейт : 256 Кбит/сек
Каналы : 2 канала
Расположение каналов : Front: L R
Частота : 48,0 КГц
Битовая глубина : 16 бит
Метод сжатия : С потерями
Размер потока : 166 Мбайт (2%)
Заголовок : Многоголосый ''R5'' (AC-3, Постоянный, 256 Кбит/сек, 2 канала, 48,0 КГц, 16 бит)
Язык : Russian
Default : Да
Forced : Нет
Аудио #2
Идентификатор : 3
Формат : AC-3
Формат/Информация : Audio Coding 3
Расширение режима : CM (complete main)
Параметр Endianness формата : Big
Идентификатор кодека : A_AC3
Продолжительность : 1 ч. 30 м.
Вид битрейта : Постоянный
Битрейт : 192 Кбит/сек
Каналы : 2 канала
Расположение каналов : Front: L R
Частота : 48,0 КГц
Битовая глубина : 16 бит
Метод сжатия : С потерями
Размер потока : 124 Мбайт (2%)
Заголовок : Многоголосый ''Кипарис'' (AC-3, Постоянный, 192 Кбит/сек, 2 канала, 48,0 КГц, 16 бит)
Язык : Russian
Default : Нет
Forced : Нет
Аудио #3
Идентификатор : 4
Формат : AC-3
Формат/Информация : Audio Coding 3
Расширение режима : CM (complete main)
Параметр Endianness формата : Big
Идентификатор кодека : A_AC3
Продолжительность : 1 ч. 30 м.
Вид битрейта : Постоянный
Битрейт : 192 Кбит/сек
Каналы : 2 канала
Расположение каналов : Front: L R
Частота : 48,0 КГц
Битовая глубина : 16 бит
Метод сжатия : С потерями
Размер потока : 124 Мбайт (2%)
Заголовок : Авторский ''Сергей Визгунов'' (AC-3, Постоянный, 192 Кбит/сек, 2 канала, 48,0 КГц, 16 бит)
Язык : Russian
Default : Нет
Forced : Нет
Аудио #4
Идентификатор : 5
Формат : AC-3
Формат/Информация : Audio Coding 3
Профиль формата : Dolby Digital
Расширение режима : CM (complete main)
Параметр Endianness формата : Big
Идентификатор кодека : A_AC3
Продолжительность : 1 ч. 30 м.
Вид битрейта : Постоянный
Битрейт : 192 Кбит/сек
Каналы : 2 канала
Расположение каналов : Front: L R
Частота : 48,0 КГц
Битовая глубина : 16 бит
Метод сжатия : С потерями
Размер потока : 124 Мбайт (2%)
Заголовок : Авторский ''Андрей Гаврилов'' (AC-3, Постоянный, 192 Кбит/сек, 2 канала, 48,0 КГц, 16 бит)
Язык : Russian
Default : Нет
Forced : Нет
Аудио #5
Идентификатор : 6
Формат : DTS
Формат/Информация : Digital Theater Systems
Идентификатор кодека : A_DTS
Продолжительность : 1 ч. 30 м.
Вид битрейта : Постоянный
Битрейт : 755 Кбит/сек
Каналы : 6 каналов
Расположение каналов : Front: L C R, Side: L R, LFE
Частота : 48,0 КГц
Битовая глубина : 24 бит
Метод сжатия : С потерями
Размер потока : 489 Мбайт (7%)
Заголовок : Оригинал (DTS, Постоянный, 768 Кбит/сек, 6 каналов, 48,0 КГц, 24 бит)
Язык : English
Default : Нет
Forced : Нет

Скриншоты

[ [ [
[Торрент-статистика]
[Профиль]  [ЛС] 
Показать сообщения:    
Ответить на тему

Текущее время: Сегодня 14:06

Часовой пояс: GMT + 4



Вы не можете начинать темы
Вы не можете отвечать на сообщения
Вы не можете редактировать свои сообщения
Вы не можете удалять свои сообщения
Вы не можете голосовать в опросах
Вы не можете прикреплять файлы к сообщениям
Вы не можете скачивать файлы